#TITLE:Solty Rei Opening;
#SUBTITLE:Clover;
#ARTIST:Meg Rock;
#TITLETRANSLIT:;
#SUBTITLETRANSLIT:;
#ARTISTTRANSLIT:;
#CREDIT:Roy Osbourne;
#BANNER:solty_BN.png;
#BACKGROUND:Solty_BG.png;
#LYRICSPATH:;
#CDTITLE:;
#MUSIC:Solty Rei Opening.mp3;
#OFFSET:-0.165;
#SAMPLESTART:1.884;
#SAMPLELENGTH:12.000;
#SELECTABLE:YES;
#BPMS:0.000=135.997;
#STOPS:;
#BGCHANGES:-1.000=Solty Rei Opening.mpeg=1.000=1=1=0,
199.500=Solty_BG.png=1.000=0=0=1,
99999=-nosongbg-=1.000=0=0=0 // don't automatically add -songbackground-
;
// cache tags:
#FIRSTBEAT:0.000;
#LASTBEAT:199.500;
#SONGFILENAME:songs/Pack anime 1/Solty Rei Opening Clover/Solty Rei Opening.sm;
#HASMUSIC:1;
#HASBANNER:1;
#MUSICLENGTH:90.392;
// end cache tags

//---------------dance-single - Basic----------------
#NOTES:
     dance-single:
     Basic:
     Easy:
     5:
     0.335,0.358,0.011,0.011,0.000,210.000,1.000,1.000,0.000,0.000:
0000
0000
0000
0000
1000
0010
0100
0000
,
0001
0010
0100
0000
0010
0000
0100
0000
,
1000
0000
0100
0000
0010
0000
0100
0010
,
0001
0000
0010
0000
0100
0000
0100
0000
,
0001
0000
0001
0000
1000
1000
0100
0000
,
1000
0000
1000
0000
0001
0001
0100
0000
,
1000
0000
0100
0000
0010
0000
0100
0010
,
1000
0000
0010
0000
0100
0000
0010
0000
,
1000
0001
1000
0000
0010
1000
0010
0000
,
0001
0000
0000
0000
0010
0000
0100
0000
,
0000
0000
0001
0000
0100
0000
0100
0000
,
1000
0000
0001
0000
0000
0000
0100
0000
,
0001
0000
1000
0000
0000
0000
0100
0000
,
1000
0000
0010
0000
0100
0000
0010
0000
,
1000
0000
0001
0000
0000
0000
0100
0000
,
0001
0000
1000
0000
0000
0000
0100
0000
,
1000
0000
0001
0000
0000
0000
0010
0000
,
1000
0000
0100
0000
1000
0000
0001
0100
,
0001
0000
1000
0000
0010
0000
1000
0000
,
1000
0000
0010
0000
0000
0000
0100
0000
,
1000
0000
1000
0000
0010
0000
0100
0000
,
1000
0000
0100
0000
1000
0000
0000
0000
,
1000
0000
0000
0000
1000
0000
0010
0000
,
1000
0000
0010
0000
0000
0000
0100
0000
,
0001
0000
1000
0000
0001
0000
0010
0000
,
0001
0000
0010
0000
0000
0000
0001
0000
,
0001
0000
0000
0000
0010
0000
0100
0000
,
1000
0000
0000
0000
0010
0000
0100
0000
,
1000
0000
0100
0000
0010
0000
0010
0000
,
1000
0000
0100
0000
0010
0000
0100
0010
,
0001
0000
0010
0001
1000
0000
0010
0000
,
1000
0000
0100
0000
0010
0000
0100
0010
,
0001
0000
1000
0000
0001
0000
0010
0000
,
0001
0000
0001
0000
1000
1000
0100
0000
,
0001
0000
0010
0001
1000
0000
0010
0000
,
1000
0000
0100
0000
1000
0000
0001
0100
,
0001
0010
0100
0000
0010
0000
0100
0000
,
1000
0000
0100
0000
1000
0000
0001
0100
,
1000
0010
0100
0100
0010
0000
1000
0000
,
0001
0000
0001
0000
1000
1000
0100
0000
,
0001
0000
1000
0000
0001
0000
0010
0000
,
0001
0000
0001
0000
1000
1000
0100
0000
,
1000
0000
1000
0000
0001
0001
0010
0000
,
0001
0010
0100
0000
0010
0000
0100
0000
,
0001
0100
0010
0000
0100
0000
0010
0000
,
1000
0000
0100
0000
1000
0000
0001
0100
,
0001
0010
0100
0000
0010
0000
0100
0000
,
1000
0001
1000
0000
0010
1000
0010
0000
,
0011
0000
0010
0000
0020
0000
1000
0000
,
0000
0000
0001
0000
0000
0000
0130
0000
,;

//---------------dance-single - Standard----------------
#NOTES:
     dance-single:
     Standard:
     Medium:
     7:
     0.430,0.440,0.111,0.011,0.000,261.000,10.000,1.000,0.000,0.000:
0000
0000
0000
0000
1000
0010
1000
0000
,
1010
0000
0010
0001
0010
0000
0100
0010
,
0001
0010
0001
0000
0100
0000
0010
0100
,
0001
0010
0100
0000
1000
0010
0010
0000
,
0001
1000
1000
0000
0001
0001
1000
0000
,
1000
0001
0001
0000
1000
1000
0001
0000
,
0001
0010
0001
0000
0100
0000
0010
0100
,
0001
0010
0001
1000
0010
0000
1000
0000
,
0001
0100
0001
0100
0010
0001
0100
0010
,
0001
0000
0001
0000
1000
0000
0001
0100
,
0001
0000
0100
0000
0010
0000
0010
0000
,
1000
0000
0100
0000
0000
0000
0010
0000
,
1000
0000
0010
0000
0000
0000
0100
0000
,
0001
0010
0001
1000
0010
0000
1000
0000
,
1000
0000
0100
0000
0000
0000
0010
0000
,
1000
0000
0010
0000
0000
0000
0100
0000
,
1000
0000
0010
0000
0000
0000
0100
0000
,
1000
1000
0001
0000
0010
0010
1000
0010
,
1000
0100
1000
0010
0000
0000
1000
0000
,
1000
0100
1000
0000
0010
0000
0100
0000
,
1000
0000
0000
0001
1000
0010
1000
0000
,
0001
0000
0000
0000
0100
0010
0000
0100
,
1000
0000
0000
0000
1000
0000
0010
1000
,
1000
0100
1000
0000
0010
0000
0100
0000
,
0001
0000
0100
0010
1000
0000
0001
0000
,
0000
0000
1000
0000
0000
0010
0100
0010
,
0001
0000
0001
0000
1000
0000
0001
0100
,
1000
0000
1000
0000
0001
0000
1000
0010
,
1000
0010
0100
0000
0010
0000
0010
1000
,
0001
0010
0001
0000
0100
0000
0010
0100
,
1000
0010
1000
0000
0110
0000
0010
0000
,
0001
0010
0001
0000
0100
0000
0010
0100
,
0001
0000
0100
0010
1000
0000
0001
0000
,
0001
1000
1000
0000
0001
0001
1000
0000
,
1000
0010
1000
0000
0110
0000
0010
0000
,
1000
1000
0001
0000
0010
0010
1000
0000
,
1010
0000
0010
0001
0010
0000
0100
0010
,
1000
1000
0001
0000
0010
0010
1000
0000
,
0101
0000
0100
0100
0010
0001
1000
0100
,
0001
1000
1000
0000
0001
0001
1000
0000
,
0001
0000
0100
0010
1000
0000
0001
0000
,
0001
1000
1000
0000
0001
0001
1000
0000
,
0001
1000
1000
0000
0001
0001
1000
0000
,
1010
0000
0010
0001
0010
0000
0100
0000
,
0101
0000
0100
1000
0100
0000
0010
0100
,
1000
1000
0001
0000
0010
0010
1000
0000
,
1010
0000
0010
0001
0010
0000
0100
0010
,
0001
0100
0001
0100
0010
0001
0100
0000
,
0101
0000
0010
0100
2000
0000
0010
0000
,
1000
0000
0100
0000
0000
0000
3010
0000
,;

//---------------dance-single - Heavy----------------
#NOTES:
     dance-single:
     Heavy:
     Hard:
     8:
     0.561,0.469,0.144,0.011,0.000,341.000,13.000,1.000,0.000,0.000:
0001
1000
0010
0010
0100
0000
0110
0000
,
0110
0000
0100
0001
0100
0010
0100
0001
,
0001
1000
0100
0010
0001
0000
0100
0010
,
0001
0100
0001
0001
1000
0010
0010
1000
,
0001
0100
0100
0000
0010
0010
1000
0001
,
0001
0100
0100
0000
0010
0010
1000
0001
,
0001
1000
0100
0010
0001
0000
0100
0010
,
1000
0001
0010
0100
0010
0100
1000
0000
,
1001
0000
0010
0000
0100
1000
0001
0000
,
0001
1000
1000
0000
0100
1000
0010
0001
,
0001
0100
0010
0100
0010
0100
0100
0001
,
0001
0100
0010
0100
0001
0001
0010
0001
,
1000
0010
0100
0010
1000
1000
0100
1000
,
1000
0001
0010
0100
0010
0100
1000
0100
,
0001
0100
0010
0100
0001
0001
0010
0001
,
1000
0010
0100
0010
1000
1000
0100
1000
,
0001
0010
0100
0010
0001
0001
0100
0001
,
1000
1000
0100
0000
1000
1000
0010
1000
,
0001
1000
0001
0010
1000
1000
0010
0001
,
0001
0100
0001
1000
0010
0000
0100
0010
,
0001
0000
0001
1000
0100
1000
0010
0000
,
0001
0010
0001
0010
0100
1000
0001
1000
,
1000
0010
0100
0010
0010
0100
0010
1000
,
0001
0100
0001
1000
0010
0000
0100
0010
,
1000
0010
0100
0001
0100
0100
0000
0001
,
0001
0100
0010
1000
0001
0100
0001
0100
,
0001
1000
1000
0000
0100
1000
0010
0001
,
0001
1000
1000
0000
0010
1000
0100
0000
,
1100
0000
0100
1000
0001
0010
0010
0100
,
0001
1000
0100
0010
0001
0000
0100
0010
,
1000
0100
1000
0000
0101
0000
0100
1000
,
0001
1000
0100
0010
0001
0000
0100
0010
,
1000
0010
0100
0001
0100
0100
0000
0001
,
0001
0100
0100
0000
0010
0010
1000
0001
,
1000
0100
1000
0000
0101
0000
0100
1000
,
1000
1000
0100
0000
1000
1000
0010
0000
,
0110
0000
0100
0001
0100
0010
0100
0001
,
1000
1000
0100
0000
1000
1000
0010
0000
,
1001
0000
0100
0100
0010
0000
0000
0001
,
0001
0100
0100
0000
0010
0010
1000
0001
,
1000
0010
0100
0001
0100
0100
0000
0001
,
0001
0100
0100
0000
0010
0010
1000
0001
,
1000
0010
0010
0000
0100
0100
0001
0000
,
0110
0000
0100
0001
0100
0010
0100
0000
,
0110
0000
0100
1000
0100
0010
0100
1000
,
1000
1000
0100
0000
1000
1000
0010
0000
,
0110
0000
0100
0001
0100
0010
0100
0000
,
1001
0000
0010
0000
0100
1000
0001
0000
,
0110
0000
0100
0001
2000
0000
0010
0000
,
0001
0000
0010
0000
0001
0000
3010
0001
;
